#TITLE:Super Dancer;
#SUBTITLE:Dead Master;
#ARTIST:9You;
#TITLETRANSLIT:;
#SUBTITLETRANSLIT:;
#ARTISTTRANSLIT:;
#CREDIT:;
#BANNER:bn.jpg;
#BACKGROUND:bg.jpg;
#LYRICSPATH:;
#CDTITLE:cd.png;
#MUSIC:Super Dancer (9You).mp3;
#OFFSET:-1.614;
#SAMPLESTART:45.151;
#SAMPLELENGTH:12.000;
#SELECTABLE:YES;
#BPMS:0.000=137.813;
#STOPS:;
#BGCHANGES:;
// cache tags:
#FIRSTBEAT:1.000;
#LASTBEAT:285.250;
#SONGFILENAME:Songs/poyect/SDO(Super Dancer)/Super Dancer (9You).sm;
#HASMUSIC:1;
#HASBANNER:1;
#MUSICLENGTH:126.798;
// end cache tags

//---------------dance-single - ----------------
#NOTES:
     dance-single:
     :
     Hard:
     1:
     0.783,1.000,0.568,0.174,1.000,597.000,72.000,22.000,0.000,4.000:  // measure 1
0000
0000
0000
0000
1000
0000
0000
0000
0000
0010
0000
0000
0100
0000
0000
0001
,  // measure 2
0000
0000
1000
0000
0010
0000
0000
0100
0000
0000
0000
0000
0000
0000
0000
0010
,  // measure 3
0000
1000
0000
0001
0000
0000
0100
0000
0000
0010
0000
0000
1000
0000
0000
0000
,  // measure 4
0000
0000
0000
0000
0000
0010
0000
0100
0000
0000
0001
0000
0000
0000
1000
0000
,  // measure 5
0000
0010
0000
0100
0000
0000
0000
0000
0001
0000
0000
0100
0000
0000
0010
0000
,  // measure 6
0000
1000
0000
0010
0000
0000
0000
0100
0000
0000
0000
0000
0001
0000
0000
0000
,  // measure 7
0010
0000
0100
0000
0000
0010
0000
0000
1000
0000
0001
0000
0000
0000
0100
0000
,  // measure 8
0000
0000
0000
0000
0000
0000
0010
0000
0000
0000
0100
0000
0000
0001
0000
0000
,  // measure 9
1000
0000
0000
0010
0000
0000
0100
0000
0000
0000
0000
0000
0000
0000
0010
0000
,  // measure 10
0000
0100
0000
0001
0000
0000
1000
0000
0000
0010
0000
0200
0000
0000
0000
0000
,  // measure 11
0000
0300
0020
0000
0000
0000
1030
0000
0000
0100
0010
0000
0010
0000
0000
0000
,  // measure 12
0000
0001
0001
0000
0001
0000
1000
0000
1000
1000
0010
0000
0010
0010
0000
0100
,  // measure 13
0000
0100
0001
0001
0000
0001
0100
0000
0010
0010
0010
0000
1000
1000
0001
0001
,  // measure 14
0001
0000
0100
0010
0000
0010
0010
1000
0001
1000
0001
0001
0100
0100
0010
0010
,  // measure 15
0000
0010
1000
1000
0001
0000
0001
0000
0100
0010
0000
0010
0010
0000
1000
0001
,  // measure 16
0001
0001
0000
0100
0010
0110
0000
0010
0010
1000
0001
0000
0001
0001
0000
0100
,  // measure 17
0010
0010
0000
1010
0000
1010
0000
0001
0001
0100
0010
0000
0010
0010
0000
1000
,  // measure 18
0000
1010
0010
0000
0001
0001
0000
0001
0100
0010
0000
0010
1000
0000
0010
0010
,  // measure 19
0010
0000
0100
0001
0001
0000
0101
0000
0010
0010
0000
1001
0000
0011
0000
0010
,  // measure 20
0100
0000
0101
0000
1010
0001
0100
0010
0100
0001
1000
0010
0100
0101
0000
0010
,  // measure 21
1000
0010
0000
0110
0000
0110
0000
1001
0000
0110
0000
0101
0001
1000
0110
0000
,  // measure 22
0101
0000
1001
0000
0110
0000
0101
0000
0101
0000
0010
1000
1001
0000
0110
0000
,  // measure 23
0101
0110
0000
0101
0000
0101
0000
0010
0000
1011
0000
1101
0000
0101
0001
1000
,  // measure 24
0000
0110
0101
0000
0101
0000
0101
0000
0000
1000
0010
0100
0110
0000
1001
0000
,  // measure 25
0110
0000
1001
0000
0110
0000
0001
0100
0110
0000
1001
0000
0110
0000
0001
1000
,  // measure 26
0110
0000
0001
0000
0001
0000
0001
0001
0000
0000
0001
0000
0001
0000
0001
1000
,  // measure 27
0100
0010
0010
0000
0100
0010
0000
0010
0100
0000
0010
0010
0000
0001
0010
0100
,  // measure 28
1000
0100
0010
0010
0000
0001
0010
0100
1000
0000
0010
0000
0010
0100
0011
0000
,  // measure 29
0000
0100
0010
0000
0010
0111
0000
1100
0010
0000
0010
0001
0010
0100
0010
0000
,  // measure 30
0000
0000
0010
0000
0011
0000
0100
1000
0110
0010
0000
0001
0010
0100
0000
0010
,  // measure 31
0000
0010
0110
0001
0010
0100
0000
1000
0100
0010
0010
0001
0010
0000
0100
0000
,  // measure 32
0010
0010
0000
0101
1010
0100
0000
0010
0010
0000
0001
0010
0100
0000
0010
0010
,  // measure 33
0000
0100
0010
0000
1110
0100
0010
0000
0011
0000
0010
0100
0000
1000
0110
0000
,  // measure 34
0010
0000
0010
0000
0010
0011
0000
0100
1000
0110
0000
0010
0001
0010
0100
0000
,  // measure 35
0010
0000
0010
0100
1000
0100
0010
0010
0000
0001
0001
0010
0100
0000
1100
0010
,  // measure 36
0010
0000
0100
0001
0001
0100
0010
0000
0010
1010
0000
0010
0100
0001
0001
0100
,  // measure 37
0001
0000
0001
1000
0010
0000
0010
0010
0100
0001
0100
0001
0000
0000
1010
0010
,  // measure 38
0000
0100
0010
0110
0000
0001
0000
0001
1000
0010
0000
0010
0100
0000
0001
0001
,  // measure 39
1000
0010
0000
0010
0000
0100
0001
0001
0100
0010
0000
1000
0010
0010
0000
0100
,  // measure 40
0001
0001
0000
0000
0100
0010
0010
0100
0000
0001
0000
0000
0010
0000
0010
0100
,  // measure 41
1000
0100
0000
0010
0000
0010
0001
0000
0010
0100
0010
0000
0010
0000
1000
0100
,  // measure 42
0010
0010
0000
0000
0100
0010
0001
0010
0100
0000
0010
0000
0010
0100
0010
0000
,  // measure 43
0001
0000
0010
0000
0010
0100
1000
0100
0010
0010
0000
0010
0000
0000
0011
0000
,  // measure 44
0000
1000
0100
0000
0010
0000
0001
0010
0100
0010
0000
0010
0100
0000
0010
0001
,  // measure 45
0010
0000
1000
0100
0010
0000
0010
0000
0010
0000
0011
0100
0000
1000
0100
0010
,  // measure 46
0000
0010
0000
0010
0000
0100
0010
0000
0110
0000
0011
0000
0100
1000
0110
0000
,  // measure 47
0010
0000
0001
0010
0000
0100
0000
1000
0100
0010
0010
0000
0010
0100
0001
0010
,  // measure 48
0100
0000
1000
0100
0010
0000
0010
0000
0001
0010
0100
0000
1100
0010
0000
0010
,  // measure 49
0000
0001
0020
0000
0000
0000
0000
0030
0100
0000
1100
0010
0010
0000
0001
0010
,  // measure 50
0100
0000
1000
0200
0000
0000
0000
0310
0000
0001
0110
0000
1000
0100
0010
0010
,  // measure 51
0000
0011
0000
0100
2000
0100
0010
3000
0010
0000
0011
0100
0000
1000
0100
0010
,  // measure 52
0010
0000
0002
0000
0000
0000
0000
0013
0010
0100
1000
0200
0000
0000
0000
0010
,  // measure 53
0300
0010
0200
0000
0000
0000
0000
0310
0000
0011
0010
0000
1000
0100
0010
0000
,  // measure 54
0010
0100
0000
2000
0000
0000
0000
3010
0000
0010
0001
0210
0000
0000
0000
0310
,  // measure 55
0000
0010
0000
1000
0100
0000
0010
0001
0000
0000
0000
0010
0010
0000
0000
0100
,  // measure 56
0010
0000
1000
0000
0100
0010
0010
0000
0000
0001
0000
0020
0000
0000
0000
0030
,  // measure 57
1000
0100
0000
0010
0020
0000
0000
0030
0100
0000
0010
0000
0010
1000
0000
0100
,  // measure 58
0010
0000
0002
0000
0000
0000
0000
0003
0100
0000
0010
0010
0000
0000
1000
0000
,  // measure 59
0010
0010
0000
0100
0000
0001
0000
1000
0100
0000
0000
0020
0000
0000
0030
0002
,  // measure 60
0000
0000
0000
0000
0003
0000
0000
0000
0001
0000
0000
0000
1000
0000
0000
0010
,  // measure 61
0000
0000
0000
0100
0000
0001
0000
0000
0000
1000
0000
0000
0000
0000
0000
0000
,  // measure 62
0000
0000
0010
0000
0000
0100
0000
0010
0000
0000
0100
0000
0000
0001
0000
0000
,  // measure 63
0000
0000
0000
0000
0000
0000
0010
0000
0000
0100
0000
0000
0000
1000
0000
0000
,  // measure 64
0010
0000
0000
0100
0000
0000
0010
0000
0000
0000
0000
2000
0000
0000
0000
3000
,  // measure 65
0001
0000
0000
0000
0000
0100
0010
0000
0010
0000
2000
0000
0000
0000
3000
0000
,  // measure 66
0000
0010
0000
0000
0000
0100
0000
0010
0000
0000
0100
0000
0001
0000
0000
1000
,  // measure 67
0000
0000
0010
0000
0000
0000
0000
0000
0100
0000
0000
0010
0000
0000
0100
0000
,  // measure 68
0010
0000
0000
1000
0000
0002
0000
0000
0103
0000
0000
0000
0000
0000
0000
0000
,  // measure 69
0000
0100
0000
0001
0000
0000
1000
0000
0000
0010
0000
0000
0100
0000
0000
0002
,  // measure 70
0000
0000
0000
0003
0020
0000
0000
0000
0030
0000
2000
0000
0000
0000
3000
0100
,  // measure 71
0000
0010
0000
0010
0000
0000
0002
0000
0000
0000
0000
0000
0000
0000
0000
0000
,  // measure 72
0000
0000
0000
0000
0000
0003
0000
0000
0000
0000
0000
0000
0000
0000
0000
0000
;
